Once Upon a Time in Amritsar (2016) Punjabi 720p WEB-Rip x264 AC3 5.1 ESub


    Seeders : 2      Leechers : 17


WARNING! Turn on your VPN before downloading Torrents.
Your IP Address is 194.156.125.75.   And Location ,
Your Internet Service Provider and Government can track your Online Activity!  Protect yourself from expensive lawsuits and fines NOW!
We Strongly Recommend Using Very Cheap VPN for P2P to Anonymize your Torrenting.

Note :

Please Update (Trackers Info) Before Start Torrents Downloading to See Updated Seeders And Leechers for Batter Download Speed.

Trackers List

Tracker NameLast CheckStatusSeedersLeechers
http://9.rarbg.me:2740/announce5 months agosuccess214
http://tracker.openbittorrent.com/announce5 months agosuccess00
http://tracker.publicbt.com/announce5 months agosuccess00
http://tracker.coppersurfer.tk:6969/announce5 months agosuccess00
http://thetracker.org/announce5 months agosuccess00
http://share.camoe.cn:8080/announce5 months agosuccess00
http://tracker1.itzmx.com:8080/announce5 months agosuccess00
http://9.rarbg.to:2710/announce5 months agosuccess00
http://tracker.opentrackr.org:1337/announce5 months agosuccess00
http://tracker.tiny-vps.com:6969/announce5 months agosuccess00
http://tracker.internetwarriors.net:1337/announce5 months agosuccess00
http://open.stealth.si/announce5 months agosuccess00
http://tracker.pirateparty.gr:6969/announce5 months agosuccess00



Torrent File Content (3 files)


Too many Files to show...


Description



https://m.media-amazon.com/images/M/MV5BZGExZDg2NDYtMTc0Zi00YmUxLWJlYTUtYTZmMzEwNTNkYTJiXkEyXkFqcGdeQXVyODE5NzE3OTE@._V1_SY1000_CR0,0,749,1000_AL_.jpg

https://www.imdb.com/title/tt5610172/

General
Format : Matroska
Format version : Version 4 / Version 2
File size : 1.32 GiB
Duration : 1 h 50 min
Overall bit rate : 1 716 kb/s
Movie name : Once Upon a Time in Amritsar (2016) Punjabi 720p WEB-Rip x264 AC3 5.1 ESub-Sun George

===================================================================

Video
ID : 1
Format : AVC
Format/Info : Advanced Video Codec
Format profile : [email protected]
Format settings : CABAC / 4 Ref Frames
Format settings, CABAC : Yes
Format settings, RefFrames : 4 frames
Codec ID : V_MPEG4/ISO/AVC
Duration : 1 h 50 min
Bit rate : 1 500 kb/s
Width : 1 280 pixels
Height : 544 pixels
Display aspect ratio : 2.35:1
Frame rate mode : Variable
Frame rate : 25.000 FPS
Color space : YUV
Chroma subsampling : 4:2:0
Bit depth : 8 bits
Scan type : Progressive
Bits/(Pixel*Frame) : 0.086
Stream size : 1.15 GiB (87%)
Title : Sun George

===================================================================

Audio
ID : 2
Format : AC-3
Format/Info : Audio Coding 3
Codec ID : A_AC3
Duration : 1 h 50 min
Bit rate mode : Constant
Bit rate : 224 kb/s
Channel(s) : 6 channels
Channel positions : Front: L C R, Side: L R, LFE
Sampling rate : 48.0 kHz
Frame rate : 31.250 FPS (1536 SPF)
Bit depth : 16 bits
Compression mode : Lossy
Delay relative to video : 9 ms
Stream size : 177 MiB (13%)
Title : Punjabi- Sun George
Language : Panjabi
Service kind : Complete Main
Default : Yes
Forced : No


https://extraimage.net/images/2019/01/11/87411aa6b5e95c03598f9dfd3f37fd0f.md.jpg


https://extraimage.net/images/2019/01/11/ec0d27d54b253ab9d3c09e1d58edeaf3.md.jpg


https://extraimage.net/images/2019/01/11/69362f24645262b82badaa91c1f8566a.md.jpg

Related torrents

Torrent NameAddedSizeSeedLeechHealth
1 Year+ - in Music76.83 MB00
5 months ago - in Movies987.85 MB3774
Verified torrent
1 Year+ - in Movies716.52 MB00
1 Year+ - in Movies2.85 GB00
5 months ago - in Movies1.13 GB20136
5 months ago - in Movies7.65 GB1717

Note :

Feel free to post any comments about this torrent, including links to Subtitle, samples, screenshots, or any other relevant information. Watch Once Upon a Time in Amritsar (2016) Punjabi 720p WEB-Rip x264 AC3 5.1 ESub Free Movies Online, Like 123Movies, Fmovies, Putlockers, Popcorntime, Netflix or Direct Download Once Upon a Time in Amritsar (2016) Punjabi 720p WEB-Rip x264 AC3 5.1 ESub via Magnet Link.

Comments (0 Comments)




Please login or create a FREE account to post comments
Quick Browse
Movies
TV shows
Music
Games
Applications
Anime
Other

Latest Articles

Friends

Latest Searches